+ mastsystemsinc.com »  :::: Bollywood Zone » Regional Movies » Regional Movies in Hindi
|- Sirfirein Looterey (2018 - Hindi Dubbed) - 1CD - DTHRip[x264 - AAC3(5.1Ch)]


100% Bill Offer

Sirfirein Looterey (2018 - Hindi Dubbed) - 1CD - DTHRip[x264 - AAC3(5.1Ch)]

0 Members and 1 Guest are viewing this topic.

October 10, 2018, 09:33:41 PM
  • Semi Newbie
  • **
  • Topic Author
  • Thank You: 0
  • Reputation: -1
  • Activity:
    8%
  • Country: bd
  • Posts: 40
  • Topics: 40
  • Join Date: Oct 2018
  • ShareSpark Member
      Sirfirein Looterey (2018 - Hindi Dubbed) -
1CD - DTHRip[x264 - AAC3(5.1Ch)]     
 




Code: [Select]
General
Format                                   : Matroska
Format version                           : Version 4
File size                                : 700 MiB
Duration                                 : 2 h 19 min

Video
ID                                       : 1
Format                                   : AVC
Format/Info                              : Advanced Video Codec
Format profile                           : [email protected]
Format settings                          : CABAC / 4 Ref Frames
Format settings, CABAC                   : Yes
Format settings, RefFrames               : 4 frames
Codec ID                                 : V_MPEG4/ISO/AVC
Duration                                 : 2 h 19 min
Bit rate                                 : 573 kb/s
Width                                    : 640 pixels
Height                                   : 328 pixels
Display aspect ratio                     : 1.951
Frame rate mode                          : Constant
Frame rate                               : 25.000 FPS
Color space                              : YUV
Chroma subsampling                       : 4:2:0
Bit depth                                : 8 bits
Scan type                                : Progressive
Bits/(Pixel*Frame)                       : 0.109
Stream size                              : 570 MiB (82%)

Audio
ID                                       : 2
Format                                   : AAC LC SBR
Commercial name                          : HE-AAC
Format settings                          : Explicit
Codec ID                                 : A_AAC-2
Duration                                 : 2 h 19 min
Bit rate                                 : 128 kb/s
Channel(s)                               : 6 channels
Channel layout                           : C L R Ls Rs LFE
Sampling rate                            : 48.0 kHz
Stream size                              : 127 MiB (18%)


  Thumbnail   





OR

OR

Share this topic on FacebookShare this topic on GoogleShare this topic on MySpaceShare this topic on TwitterShare this topic on Yahoo




Tags:
 

Related Topics





Back to top
Sitemap