+ mastsystemsinc.com »  :::: Dubbed Zone (Dubbed English in Hindi) » English Movies Dubbed in Hindi » High Resolution Movies
|- Ant-Man (2015) + Extras 1080p BluRay x264 Dual Audio [English 5.1 + Hindi 2.0] - TBI


Mastercard 10% Off

Ant-Man (2015) + Extras 1080p BluRay x264 Dual Audio [English 5.1 + Hindi 2.0] - TBI

0 Members and 1 Guest are viewing this topic.

December 08, 2015, 09:50:08 AM
  • Admin
  • Legend Member
  • ****
  • Topic Author
  • Thank You: 2240
  • Reputation: 588
  • Activity:
    23%
  • Country: in
  • Posts: 3638
  • Topics: 2221
  • Join Date: Dec 2013
  • ShareSpark Member
   
Ant-Man (2015) + Extras 1080p BluRay x264 Dual Audio [English 5.1 + Hindi 2.0] - TBI




   
   
Poster         :

   














   

Release Info:


Release Name: Ant-Man (2015)
Size: 2.31 GiB
Video: AVC | 1920 x 1040 | 2000 Kbps | 23.976 FPS | 1.85:1
Audio 1: English | 448 Kbps | 6ch | AC3
Audio 2: Hindi | 384 Kbps | 6ch | AC3
Runtime: 01h 57mn 06secs
Subtitle: English
Source: BluRay-HDClub


IMDB Info:


Name: Ant-Man (2015)
Genre: Action, Adventure, Sci-Fi
IMDB Link:

Director: Peyton Reed
Writers: Edgar Wright (screenplay), Joe Cornish (screenplay)
Cast: Paul Rudd, Michael Douglas, Corey Stoll
Plot: Armed with a super-suit with the astonishing ability to shrink in scale but
increase in strength, cat burglar Scott Lang must embrace his inner hero and help his mentor,
Dr. Hank Pym, plan and pull off a heist that will save the world.


General


Complete name : Ant-Man (2015).mp4
Format : MPEG-4
Format profile : Base Media
Codec ID : isom
File size : 2.32 GiB
Duration : 1h 57mn
Overall bit rate : 2 835 Kbps


Video


ID : 1
Format : AVC
Format/Info : Advanced Video Codec
Format profile : [email protected]
Format settings, CABAC : Yes
Format settings, ReFrames : 5 frames
Codec ID : avc1
Codec ID/Info : Advanced Video Coding
Duration : 1h 57mn
Bit rate : 2 000 Kbps
Maximum bit rate : 25.6 Mbps
Width : 1 920 pixels
Height : 1 040 pixels
Display aspect ratio : 1.85:1
Frame rate mode : Constant
Frame rate : 23.976 fps
Color space : YUV
Chroma subsampling : 4:2:0
Bit depth : 8 bits
Scan type : Progressive
Bits/(Pixel*Frame) : 0.042
Stream size : 1.64 GiB (71%)
Writing library : x264 core 148 r2638kMod 7599210


Audio #1


ID : 2
Format : AC-3
Format/Info : Audio Coding 3
Mode extension : CM (complete main)
Format settings, Endianness : Big
Codec ID : ac-3
Duration : 1h 57mn
Bit rate mode : Constant
Bit rate : 448 Kbps
Channel count : 6 channels
Channel positions : Front: L C R, Side: L R, LFE
Sampling rate : 48.0 KHz
Bit depth : 16 bits
Compression mode : Lossy
Delay relative to video : 100ms
Stream size : 375 MiB (16%)
Language : English


Audio #2


ID : 3
Format : AC-3
Format/Info : Audio Coding 3
Mode extension : CM (complete main)
Format settings, Endianness : Big
Codec ID : ac-3
Duration : 1h 57mn
Bit rate mode : Constant
Bit rate : 384 Kbps
Channel count : 6 channels
Channel positions : Front: L C R, Side: L R, LFE
Sampling rate : 48.0 KHz
Bit depth : 16 bits
Compression mode : Lossy
Delay relative to video : 1s 0ms
Stream size : 322 MiB (14%)
Language : Hindi



All Credit Goes To "TBI"






Movie















Subtitle [SRT File]









Extras In Single Zip File








Share this topic on FacebookShare this topic on GoogleShare this topic on MySpaceShare this topic on TwitterShare this topic on Yahoo

« Last Edit: December 08, 2015, 10:38:00 AM by тнє ωαll 81317 »




Tags:
 

Related Topics





Back to top
Sitemap